梦幻天堂·龙网

 找回密码
 立即注册
查看: 383|回复: 4

[原盘remux] [喜剧]姐妹老板.1080p.BluRay.REMUX.AVC.DTS-HD.MA.TrueHD.7.1-FGT 25.63 GB

[复制链接]

6763

主题

8860

帖子

1万

积分

神界龙王

Rank: 30Rank: 30Rank: 30Rank: 30

积分
19075

龙网爱心勋章

发表于 2020-5-17 13:03:01 | 显示全部楼层 |阅读模式

导演: 米盖尔·阿尔特塔
编剧: 萨姆·皮特曼 / 亚当·科尔·凯利
主演: 萨尔玛·海耶克 / 罗丝·伯恩 / 蒂凡尼·哈迪斯 / 比利·波特 / 詹妮佛·库里奇 / 艾莉·葛瑞那 / 卡兰·索尼 / 瑞恩·汉森 / 杰西卡·圣克莱尔 / 欧阳万成 / 凯瑟琳·帕克 / 雅各布·拉提摩尔 / 塞斯·罗林斯 / 娜塔莎·罗斯韦尔 / 凯瑟琳·卡兰 / 凡妮莎·梅雷尔 / 维罗妮卡·梅雷尔 / 梅利莎·圣阿曼德
类型: 喜剧
制片国家/地区: 美国
语言: 英语
上映日期: 2020-01-10(美国)
片长: 83分钟
又名: 有限合伙人 / Limited Partners / 波士鬥腦細(港)
IMDb链接: tt7545266


姐妹老板的剧情简介:
  好朋友米娅和梅尔(哈迪斯、萝丝饰)经营着自己白手起家的化妆品公司,过着最好的生活。不幸的是,他们在财务上陷入困境,而化妆品行业臭名昭著的巨头克莱尔(海耶克饰)提出的巨额收购要约太过诱人,这让俩人的终身友谊岌岌可危。


姐妹老板电影截图:



Video
ID : 1
Format : AVC
Format/Info : Advanced Video Codec
Format profile : High@L4.1
Format settings : CABAC / 4 Ref Frames
Format settings, CABAC : Yes
Format settings, Reference frames : 4 frames
Codec ID : V_MPEG4/ISO/AVC
Duration : 1 h 23 min
Bit rate mode : Variable
Bit rate : 30.3 Mb/s
Maximum bit rate : 33.8 Mb/s
Width : 1 920 pixels
Height : 1 080 pixels
Display aspect ratio : 16:9
Frame rate mode : Constant
Frame rate : 23.976 (24000/1001) FPS
Color space : YUV
Chroma subsampling : 4:2:0
Bit depth : 8 bits
Scan type : Progressive
Bits/(Pixel*Frame) : 0.609
Stream size : 17.7 GiB (69%)
Title : 姐妹老板.Like.a.Boss.2020.1080p.BluRay.REMUX.AVC.DTS-HD.MA.TrueHD.7.1-FGT
Language : English
Default : No
Forced : No

Audio #1
ID : 2
Format : MLP FBA
Format/Info : Meridian Lossless Packing FBA
Commercial name : Dolby TrueHD
Codec ID : A_TRUEHD
Duration : 1 h 23 min
Bit rate mode : Variable
Bit rate : 3 131 kb/s
Maximum bit rate : 5 004 kb/s
Channel(s) : 8 channels
Channel layout : L R C LFE Ls Rs Lb Rb
Sampling rate : 48.0 kHz
Frame rate : 1 200.000 FPS (40 SPF)
Compression mode : Lossless
Stream size : 1.82 GiB (7%)
Title : 姐妹老板.Like.a.Boss.2020.1080p.BluRay.REMUX.AVC.DTS-HD.MA.TrueHD.7.1-FGT
Language : English
Default : Yes
Forced : No

Audio #2
ID : 3
Format : DTS XLL
Format/Info : Digital Theater Systems
Commercial name : DTS-HD Master Audio
Codec ID : A_DTS
Duration : 1 h 23 min
Bit rate mode : Variable
Bit rate : 3 638 kb/s
Channel(s) : 8 channels
Channel layout : C L R LFE Lb Rb Lss Rss
Sampling rate : 48.0 kHz
Frame rate : 93.750 FPS (512 SPF)
Bit depth : 24 bits
Compression mode : Lossless
Stream size : 2.12 GiB (8%)
Title : 姐妹老板.Like.a.Boss.2020.1080p.BluRay.REMUX.AVC.DTS-HD.MA.TrueHD.7.1-FGT
Language : English
Default : No
Forced : No

Audio #3
ID : 4
Format : AC-3
Format/Info : Audio Coding 3
Commercial name : Dolby Digital
Codec ID : A_AC3
Duration : 1 h 23 min
Bit rate mode : Constant
Bit rate : 640 kb/s
Channel(s) : 6 channels
Channel layout : L R C LFE Ls Rs
Sampling rate : 48.0 kHz
Frame rate : 31.250 FPS (1536 SPF)
Bit depth : 16 bits
Compression mode : Lossy
Stream size : 382 MiB (1%)
Title : 姐妹老板.Like.a.Boss.2020.1080p.BluRay.REMUX.AVC.DTS-HD.MA.TrueHD.7.1-FGT
Language : English
Service kind : Complete Main
Default : No
Forced : No

Audio #4
ID : 5
Format : AC-3
Format/Info : Audio Coding 3
Commercial name : Dolby Digital
Codec ID : A_AC3
Duration : 1 h 23 min
Bit rate mode : Constant
Bit rate : 640 kb/s
Channel(s) : 6 channels
Channel layout : L R C LFE Ls Rs
Sampling rate : 48.0 kHz
Frame rate : 31.250 FPS (1536 SPF)
Bit depth : 16 bits
Compression mode : Lossy
Stream size : 382 MiB (1%)
Title : 姐妹老板.Like.a.Boss.2020.1080p.BluRay.REMUX.AVC.DTS-HD.MA.TrueHD.7.1-FGT
Language : English
Service kind : Complete Main
Default : No
Forced : No

Audio #5
ID : 6
Format : AC-3
Format/Info : Audio Coding 3
Commercial name : Dolby Digital
Codec ID : A_AC3
Duration : 1 h 23 min
Bit rate mode : Constant
Bit rate : 640 kb/s
Channel(s) : 6 channels
Channel layout : L R C LFE Ls Rs
Sampling rate : 48.0 kHz
Frame rate : 31.250 FPS (1536 SPF)
Bit depth : 16 bits
Compression mode : Lossy
Stream size : 382 MiB (1%)
Title : 姐妹老板.Like.a.Boss.2020.1080p.BluRay.REMUX.AVC.DTS-HD.MA.TrueHD.7.1-FGT
Language : German
Service kind : Complete Main
Default : No
Forced : No



磁力链接:
magnet:?xt=urn:btih:b863fe5685f2202de29c7af2d28a35d7ee4ba6d5&dn=Like.a.Boss.2020.1080p.BluRay.REMUX.AVC.DTS-HD.MA.TrueHD.7.1-FGT&tr=http%3A%2F%2Ftracker.trackerfix.com%3A80%2Fannounce&tr=udp%3A%2F%2F9.rarbg.me%3A2750&tr=udp%3A%2F%2F9.rarbg.to%3A2800

本帖子中包含更多资源

您需要 登录 才可以下载或查看,没有帐号?立即注册

x

1

主题

197

帖子

383

积分

龙少爷

Rank: 10Rank: 10

积分
383
发表于 2020-5-18 16:22:41 | 显示全部楼层
感谢楼主分享!!!!

2

主题

3万

帖子

4万

积分

升龙霸·VIP

Rank: 22Rank: 22Rank: 22Rank: 22

积分
44883

龙网爱心勋章龙网VIP·银牌

发表于 2020-5-19 22:12:29 | 显示全部楼层
谢谢楼主发片

1

主题

19

帖子

37

积分

泡泡龙

Rank: 5Rank: 5Rank: 5

积分
37
发表于 5 天前 | 显示全部楼层
谢谢楼主发片

57

主题

71

帖子

212

积分

龙少爷

Rank: 10Rank: 10

积分
212
发表于 4 天前 | 显示全部楼层
感谢楼主发片~
您需要登录后才可以回帖 登录 | 立即注册

本版积分规则

小黑屋|梦幻天堂·龙网

GMT+8, 2020-5-28 23:00 , Processed in 0.121090 second(s), 21 queries , Gzip On.

Powered by Discuz! X3.2

© 2001-2013 Comsenz Inc.

快速回复 返回顶部 返回列表