梦幻天堂·龙网

 找回密码
 立即注册
查看: 152|回复: 3

[原盘remux] [动作]梦幻岛.Fantasy.Island.2020.UNRATED.1080p.BluRay.REMUX.5.1-FGT 26....

[复制链接]

6763

主题

8860

帖子

1万

积分

神界龙王

Rank: 30Rank: 30Rank: 30Rank: 30

积分
19075

龙网爱心勋章

发表于 2020-5-17 12:58:41 | 显示全部楼层 |阅读模式
梦幻岛海报:

导演: 杰夫·瓦德洛
编剧: 吉莉安·雅各布斯 / 克里斯托弗·罗奇 / 杰夫·瓦德洛
主演: 露西·海尔 / 李美琪 / 波茜娅·道布尔戴 / 迈克尔·佩纳 / 帕里莎·菲兹-亨利 / 瑞恩·汉森 / 夏洛特·麦金尼 / 迈克尔·鲁克 / 金·寇兹 / 埃文·埃瓦戈拉 / 奥斯汀·斯托维尔 / 欧阳万成 / 罗比·琼斯 / 戈兰·D·克鲁特 / 蕾妮·默登 / 伊恩·罗伯茨 / 蒂姆·王 / 史蒂文·A·戴维斯
类型: 恐怖 / 冒险
制片国家/地区: 美国
语言: 英语
上映日期: 2020-02-14(美国)
片长: 110分钟
又名: 逃出梦幻岛(台) / 谜·离岛(港)
IMDb链接: tt0983946


梦幻岛的剧情简介:
  迈克尔·佩纳将主演电影版[梦幻岛],饰演剧集版中里卡多·蒙特尔班的角色。原剧包含黑暗主题及超自然元素,讲述太平洋上坐落着一个神秘度假岛屿,人们的各种古怪要求似乎都可以在这里得到满足。本片由杰夫·瓦德洛([海扁王2])自编自导,故事讲述岛上的监工罗尔克警告客人们,他们的幻想可能无法实现。


梦幻岛电影截图:



Video
ID : 1
ID in the original source medium : 4113 (0x1011)
Format : AVC
Format/Info : Advanced Video Codec
Format profile : High@L4.1
Format settings : CABAC / 2 Ref Frames
Format settings, CABAC : Yes
Format settings, Reference frames : 2 frames
Format settings, GOP : M=1, N=10
Codec ID : V_MPEG4/ISO/AVC
Duration : 1 h 49 min
Bit rate mode : Variable
Bit rate : 25.8 Mb/s
Width : 1 920 pixels
Height : 1 080 pixels
Display aspect ratio : 16:9
Frame rate mode : Constant
Frame rate : 23.976 (24000/1001) FPS
Color space : YUV
Chroma subsampling : 4:2:0
Bit depth : 8 bits
Scan type : Progressive
Bits/(Pixel*Frame) : 0.518
Stream size : 19.7 GiB (74%)
Title : 梦幻岛.Fantasy.Island.2020.UNRATED.1080p.BluRay.REMUX.AVC.DTS-HD.MA.5.1-FGT
Language : English
Default : No
Forced : No
Original source medium : Blu-ray

Audio #1
ID : 2
ID in the original source medium : 4352 (0x1100)
Format : DTS XLL
Format/Info : Digital Theater Systems
Commercial name : DTS-HD Master Audio
Codec ID : A_DTS
Duration : 1 h 49 min
Bit rate mode : Variable
Bit rate : 2 265 kb/s
Channel(s) : 6 channels
Channel layout : C L R Ls Rs LFE
Sampling rate : 48.0 kHz
Frame rate : 93.750 FPS (512 SPF)
Bit depth : 16 bits
Compression mode : Lossless
Stream size : 1.73 GiB (7%)
Title : 梦幻岛.Fantasy.Island.2020.UNRATED.1080p.BluRay.REMUX.AVC.DTS-HD.MA.5.1-FGT
Language : English
Default : Yes
Forced : No
Original source medium : Blu-ray

磁力链接:

magnet:?xt=urn:btih:b67d6845d2358437d3f9b73798ee4c17a58e6fd3&dn=Fantasy.Island.2020.UNRATED.1080p.BluRay.REMUX.AVC.DTS-HD.MA.5.1-FGT&tr=http%3A%2F%2Ftracker.trackerfix.com%3A80%2Fannounce&tr=udp%3A%2F%2F9.rarbg.me%3A2780&tr=udp%3A%2F%2F9.rarbg.to%3A2970

本帖子中包含更多资源

您需要 登录 才可以下载或查看,没有帐号?立即注册

x

7

主题

27

帖子

148

积分

龙之子

Rank: 8Rank: 8Rank: 8Rank: 8

积分
148
发表于 2020-5-19 20:43:38 | 显示全部楼层
感谢楼主分享好片

2

主题

3万

帖子

4万

积分

升龙霸·VIP

Rank: 22Rank: 22Rank: 22Rank: 22

积分
44883

龙网爱心勋章龙网VIP·银牌

发表于 2020-5-19 22:13:44 | 显示全部楼层
谢谢楼主发片

57

主题

71

帖子

212

积分

龙少爷

Rank: 10Rank: 10

积分
212
发表于 4 天前 | 显示全部楼层
感谢楼主发片~
您需要登录后才可以回帖 登录 | 立即注册

本版积分规则

小黑屋|梦幻天堂·龙网

GMT+8, 2020-5-28 22:55 , Processed in 0.119824 second(s), 21 queries , Gzip On.

Powered by Discuz! X3.2

© 2001-2013 Comsenz Inc.

快速回复 返回顶部 返回列表