梦幻天堂·龙网

 找回密码
 立即注册
查看: 279|回复: 3

[原盘remux] [科幻]阿基拉.JAPANESE.2160p.JPN.BluRay.REMUX.HEVC.TrueHD.5.1-FGT 83.58 GB

[复制链接]

6763

主题

8860

帖子

1万

积分

神界龙王

Rank: 30Rank: 30Rank: 30Rank: 30

积分
19075

龙网爱心勋章

发表于 2020-5-17 12:56:14 | 显示全部楼层 |阅读模式

阿基拉.Akira.1988
导演: 大友克洋
编剧: 大友克洋 / 桥本以藏
主演: 岩田光央 / 佐佐木望 / 小山茉美 / 玄田哲章 / 大竹宏 / 北村弘一 / 池水通洋 / 渊崎由里子 / 大仓正章 / 荒川太郎 / 草尾毅 / 田中和实 / 加藤将之 / 秋元羊介 / 平野正人 / 岸野幸正 / 中村龙彦 / 神藤一弘 / 伊藤福惠 / 二又一成 / 盐屋浩三 / 小林通孝 / 梅津秀行 / 稻垣悟 / 藤井佳代子 / 丰岛雅美 / 大野由佳 / 铃木瑞穗 / 石田太郎
类型: 动作 / 科幻 / 动画
官方网站: dbeat.bandaivisual.co.jp/akira
制片国家/地区: 日本
语言: 日语
上映日期: 1988-07-16(日本)
片长: 124分钟
又名: 光明战士阿基拉 / 亚基拉 / 亚辉罗 / アキラ
IMDb链接: tt0094625


阿基拉的剧情简介:
  1988年7月,关东地区使用新型炸弹进行爆破,第三次世界大战即刻爆发。31年后,人类从一片废墟中重建都市,东京湾上建立了巨大城市——新东京。世界仿佛要恢复到以前的繁荣。
  2019年的一个夜晚,新东京郊外的封闭高速公路上,暴走族团体正在公路上飙车。带头的少年,是一名叫做金田的职业高中学生。
  突然,街上出现了一位奇怪的矮个子男子,暴走族少年铁雄为躲避车祸连人带车飞出公路。正当金田要拿那位男子问罪之时,军队驾驶直升飞机感到。将那位矮个男子与铁雄一起收押。
  铁雄进入了一个陌生的地方,这里似乎在从事超能力的研究。而金田则在盘算如何营救铁雄。二人都不知道,他们的未来,因为神秘力量——阿基拉而已经开始了巨大的变化。


阿基拉电影截图:



Video
ID : 1
Format : HEVC
Format/Info : High Efficiency Video Coding
Format profile : Main 10@L5.1@High
HDR format : SMPTE ST 2086, HDR10 compatible
Codec ID : V_MPEGH/ISO/HEVC
Duration : 2 h 4 min
Bit rate : 81.1 Mb/s
Width : 3 840 pixels
Height : 2 160 pixels
Display aspect ratio : 16:9
Frame rate mode : Constant
Frame rate : 23.976 (24000/1001) FPS
Color space : YUV
Chroma subsampling : 4:2:0 (Type 2)
Bit depth : 10 bits
Bits/(Pixel*Frame) : 0.408
Stream size : 70.7 GiB (85%)
Title : 阿基拉.Akira.1988.JAPANESE.2160p.JPN.BluRay.REMUX.HEVC.TrueHD.5.1-FGT
Language : English
Default : No
Forced : No
Color range : Limited
Color primaries : BT.2020
Transfer characteristics : PQ
Matrix coefficients : BT.2020 non-constant
Mastering display color primaries : BT.2020
Mastering display luminance : min: 0.0050 cd/m2, max: 1000 cd/m2
Maximum Content Light Level : 1000 cd/m2
Maximum Frame-Average Light Level : 369 cd/m2

Audio #1
ID : 2
Format : MLP FBA
Format/Info : Meridian Lossless Packing FBA
Commercial name : Dolby TrueHD
Codec ID : A_TRUEHD
Duration : 2 h 4 min
Bit rate mode : Variable
Bit rate : 9 517 kb/s
Maximum bit rate : 13.9 Mb/s
Channel(s) : 6 channels
Channel layout : L R C LFE Ls Rs
Sampling rate : 192 kHz
Frame rate : 1 200.000 FPS (160 SPF)
Compression mode : Lossless
Stream size : 8.29 GiB (10%)
Title : 阿基拉.Akira.1988.JAPANESE.2160p.JPN.BluRay.REMUX.HEVC.TrueHD.5.1-FGT
Language : Japanese
Default : Yes
Forced : No

Audio #2
ID : 3
Format : AC-3
Format/Info : Audio Coding 3
Commercial name : Dolby Digital
Codec ID : A_AC3
Duration : 2 h 4 min
Bit rate mode : Constant
Bit rate : 640 kb/s
Channel(s) : 6 channels
Channel layout : L R C LFE Ls Rs
Sampling rate : 48.0 kHz
Frame rate : 31.250 FPS (1536 SPF)
Bit depth : 16 bits
Compression mode : Lossy
Stream size : 571 MiB (1%)
Title : 阿基拉.Akira.1988.JAPANESE.2160p.JPN.BluRay.REMUX.HEVC.TrueHD.5.1-FGT
Language : Japanese
Service kind : Complete Main
Default : No
Forced : No

Audio #3
ID : 4
Format : AC-3
Format/Info : Audio Coding 3
Commercial name : Dolby Digital
Codec ID : A_AC3
Duration : 2 h 4 min
Bit rate mode : Constant
Bit rate : 640 kb/s
Channel(s) : 6 channels
Channel layout : L R C LFE Ls Rs
Sampling rate : 48.0 kHz
Frame rate : 31.250 FPS (1536 SPF)
Bit depth : 16 bits
Compression mode : Lossy
Stream size : 571 MiB (1%)
Title : 阿基拉.Akira.1988.JAPANESE.2160p.JPN.BluRay.REMUX.HEVC.TrueHD.5.1-FGT
Language : Japanese
Service kind : Complete Main
Default : No
Forced : No



磁力链接:

magnet:?xt=urn:btih:0083bac1fc3dd38a9e98a499bd393efc833579e4&dn=Akira.1988.JAPANESE.2160p.JPN.BluRay.REMUX.HEVC.TrueHD.5.1-FGT&tr=http%3A%2F%2Ftracker.trackerfix.com%3A80%2Fannounce&tr=udp%3A%2F%2F9.rarbg.me%3A2940&tr=udp%3A%2F%2F9.rarbg.to%3A2730

本帖子中包含更多资源

您需要 登录 才可以下载或查看,没有帐号?立即注册

x

0

主题

450

帖子

637

积分

龙的传人

Rank: 13Rank: 13Rank: 13

积分
637
发表于 2020-5-19 18:26:24 | 显示全部楼层
LONGBUTAIXINGREN

2

主题

3万

帖子

4万

积分

升龙霸·VIP

Rank: 22Rank: 22Rank: 22Rank: 22

积分
44883

龙网爱心勋章龙网VIP·银牌

发表于 2020-5-19 22:14:39 | 显示全部楼层
谢谢楼主发片

0

主题

4228

帖子

4136

积分

赤血神龙

Rank: 20Rank: 20Rank: 20Rank: 20

积分
4136
发表于 7 天前 | 显示全部楼层


谢谢楼主分享
您需要登录后才可以回帖 登录 | 立即注册

本版积分规则

小黑屋|梦幻天堂·龙网

GMT+8, 2020-5-28 22:58 , Processed in 0.119640 second(s), 21 queries , Gzip On.

Powered by Discuz! X3.2

© 2001-2013 Comsenz Inc.

快速回复 返回顶部 返回列表