梦幻天堂·龙网

 找回密码
 立即注册
查看: 64|回复: 1

[原盘remux] [动作]猛禽小队和哈莉·奎茵.2020.2160p.SDR.DTS-HD.MA.TrueHD.7....

[复制链接]

6763

主题

8860

帖子

1万

积分

神界龙王

Rank: 30Rank: 30Rank: 30Rank: 30

积分
19075

龙网爱心勋章

发表于 2020-5-17 12:54:18 | 显示全部楼层 |阅读模式

导演: 阎羽茜
编剧: 克里斯蒂娜·霍德森 / 查克·狄克逊 / 乔丹·B·戈芬克尔 / 格雷格·兰德
主演: 玛格特·罗比 / 玛丽·伊丽莎白·温斯特德 / 罗茜·佩雷兹 / 朱尼·斯莫利特 / 伊万·麦克格雷格 / 埃拉·杰伊·巴斯科 / 克里斯·梅西纳 / 黄阿丽 / 戴维·尤里 / 萨拉·蒙特斯 / 伊莎贝尔·帕克扎德 / 丹尼尔·伯哈特 / 帕洛马·拉比诺夫 / 德里克·威尔逊 / 乔·布卡罗三世 / 弗朗克西斯·周 / 布鲁诺·奥利弗 / 马修·维利希 / 杰里米·丹茨林格 / 迈克尔·马西尼 / 杰西·布什 / 史蒂文·威廉姆斯 / 夏洛林·阿莫亚 / 罗伯特·卡特里尼 / 埃迪·阿尔法诺 / 普拉莫德库马尔 / K.K. 巴雷特 / 西蒙·瑞 / 凯莱布·斯比尔亚兹 / 萨拉·贝克 / 埃夫卡·科瓦拉西尤斯 / 山姆·哈格雷夫 / 丹尼斯·基弗 / 博亚娜·诺瓦科维奇 / 埃里克·迈克尔·科尔 / 提姆·里格比 / 大卫·安东尼·布廖内 / 杰拉德·唐尼 / 埃迪·J.费尔南德斯 / 尼科·格莱瑟姆 / 朱迪·凯恩 / 杰夫·里帕瑞 / 詹妮尔·麦基 / 伊戈·米基塔斯 / 安东尼·莫利纳利 / 迪索·拉莫斯 / 凯伦·特利哈
类型: 动作 / 犯罪 / 冒险
官方网站: www.birdsofpreymovie.net
制片国家/地区: 美国
语言: 英语
上映日期: 2020-02-07(美国)
片长: 109分钟
又名: 哈莉·奎因:猛禽小队 / 猛禽小队 / 猛禽暴队:解疯小丑女(港) / 猛禽小队:小丑女大解放(台) / 猛禽小队(以及一个哈莉·奎茵的奇妙解放) / 猛禽小队与哈莉·奎茵的奇妙解放 / Birds of Prey / Birds of Prey (And the Fantabulous Emancipation of One Harley Quinn) / Harley Quinn: Birds of Prey
IMDb链接: tt7713068


猛禽小队和哈莉·奎茵的剧情简介 · · · · · ·
  你听过一个有关警察、歌手、神经病和黑手党公主的故事吗?《猛禽小队和哈莉·奎茵》是一个只有哈莉·奎茵本人才能讲出来的超乎寻常的奇妙传奇。哥谭市最为凶残自大的恶棍罗曼·赛恩尼斯和他狂热的手下萨斯为了寻找一个年轻女孩卡斯,将这座城市翻了个底朝天。哈莉、女猎手、黑金丝雀和蕾妮·蒙托亚不期而遇,看似违和的四人组不得不团结一致、携手作战,才有可能打败罗曼。


猛禽小队和哈莉·奎茵电影截图



Video
ID : 1
Format : AVC
Format/Info : Advanced Video Codec
Format profile : High@L5.1
Format settings : CABAC / 5 Ref Frames
Format settings, CABAC : Yes
Format settings, Reference frames : 5 frames
Codec ID : V_MPEG4/ISO/AVC
Duration : 1 h 48 min
Bit rate : 44.8 Mb/s
Width : 3 840 pixels
Height : 1 608 pixels
Display aspect ratio : 2.40:1
Frame rate mode : Constant
Frame rate : 23.976 (24000/1001) FPS
Color space : YUV
Chroma subsampling : 4:2:0
Bit depth : 8 bits
Scan type : Progressive
Bits/(Pixel*Frame) : 0.302
Stream size : 34.0 GiB (84%)
Title : 猛禽小队和哈莉·奎茵.Birds.of.Prey.And.the.Fantabulous.Emancipation.of.One.Harley.Quinn.2020.2160p.BluRay.x264.8bit.SDR.DTS-HD.MA.TrueHD.7.1.Atmos-SWTYBLZ
Writing library : x264 core 157 r2935 545de2f
Encoding settings : cabac=1 / ref=5 / deblock=1:-1:-1 / analyse=0x3:0x113 / me=umh / subme=10 / psy=1 / psy_rd=1.00:0.15 / mixed_ref=1 / me_range=48 / chroma_me=1 / trellis=2 / 8x8dct=1 / cqm=0 / deadzone=21,11 / fast_pskip=1 / chroma_qp_offset=-3 / threads=48 / lookahead_threads=4 / sliced_threads=0 / nr=0 / decimate=0 / interlaced=0 / bluray_compat=0 / constrained_intra=0 / bframes=3 / b_pyramid=2 / b_adapt=2 / b_bias=0 / direct=3 / weightb=1 / open_gop=0 / weightp=2 / keyint=250 / keyint_min=23 / scenecut=40 / intra_refresh=0 / rc_lookahead=50 / rc=crf / mbtree=1 / crf=18.0 / qcomp=0.60 / qpmin=0 / qpmax=69 / qpstep=4 / ip_ratio=1.40 / aq=1:1.00
Default : Yes
Forced : No

Audio #1
ID : 2
Format : MLP FBA 16-ch
Format/Info : Meridian Lossless Packing FBA with 16-channel presentation
Commercial name : Dolby TrueHD with Dolby Atmos
Codec ID : A_TRUEHD
Duration : 1 h 48 min
Bit rate mode : Variable
Bit rate : 3 686 kb/s
Maximum bit rate : 6 912 kb/s
Channel(s) : 8 channels
Channel layout : L R C LFE Ls Rs Lb Rb
Sampling rate : 48.0 kHz
Frame rate : 1 200.000 FPS (40 SPF)
Compression mode : Lossless
Stream size : 2.80 GiB (7%)
Title : 猛禽小队和哈莉·奎茵.Birds.of.Prey.And.the.Fantabulous.Emancipation.of.One.Harley.Quinn.2020.2160p.BluRay.x264.8bit.SDR.DTS-HD.MA.TrueHD.7.1.Atmos-SWTYBLZ
Language : English
Default : Yes
Forced : No
Number of dynamic objects : 15
Bed channel count : 1 channel
Bed channel configuration : LFE

Audio #2
ID : 3
Format : DTS XLL
Format/Info : Digital Theater Systems
Commercial name : DTS-HD Master Audio
Codec ID : A_DTS
Duration : 1 h 48 min
Bit rate mode : Variable
Bit rate : 4 251 kb/s
Channel(s) : 8 channels
Channel layout : C L R LFE Lb Rb Lss Rss
Sampling rate : 48.0 kHz
Frame rate : 93.750 FPS (512 SPF)
Bit depth : 24 bits
Compression mode : Lossless
Stream size : 3.23 GiB (8%)
Title : 猛禽小队和哈莉·奎茵.Birds.of.Prey.And.the.Fantabulous.Emancipation.of.One.Harley.Quinn.2020.2160p.BluRay.x264.8bit.SDR.DTS-HD.MA.TrueHD.7.1.Atmos-SWTYBLZ
Language : English
Default : No
Forced : No

Audio #3
ID : 4
Format : AC-3
Format/Info : Audio Coding 3
Commercial name : Dolby Digital
Codec ID : A_AC3
Duration : 1 h 48 min
Bit rate mode : Constant
Bit rate : 640 kb/s
Channel(s) : 6 channels
Channel layout : L R C LFE Ls Rs
Sampling rate : 48.0 kHz
Frame rate : 31.250 FPS (1536 SPF)
Compression mode : Lossy
Stream size : 499 MiB (1%)
Title : 猛禽小队和哈莉·奎茵.Birds.of.Prey.And.the.Fantabulous.Emancipation.of.One.Harley.Quinn.2020.2160p.BluRay.x264.8bit.SDR.DTS-HD.MA.TrueHD.7.1.Atmos-SWTYBLZ
Language : English
Service kind : Complete Main
Default : No
Forced : No



磁力链接:

magnet:?xt=urn:btih:dfab4472716fc36dffbeabefc8d749e9ced15fba&dn=Birds.of.Prey.And.the.Fantabulous.Emancipation.of.One.Harley.Quinn.2020.2160p.BluRay.x264.8bit.SDR.DTS-HD.MA.TrueHD.7.1.Atmos-SWTYBLZ&tr=http%3A%2F%2Ftracker.trackerfix.com%3A80%2Fannounce&tr=udp%3A%2F%2F9.rarbg.me%3A2930&tr=udp%3A%2F%2F9.rarbg.to%3A2830

本帖子中包含更多资源

您需要 登录 才可以下载或查看,没有帐号?立即注册

x

2

主题

3万

帖子

4万

积分

升龙霸·VIP

Rank: 22Rank: 22Rank: 22Rank: 22

积分
44883

龙网爱心勋章龙网VIP·银牌

发表于 2020-5-19 22:15:09 | 显示全部楼层
谢谢楼主发片
您需要登录后才可以回帖 登录 | 立即注册

本版积分规则

小黑屋|梦幻天堂·龙网

GMT+8, 2020-5-29 00:04 , Processed in 0.114110 second(s), 21 queries , Gzip On.

Powered by Discuz! X3.2

© 2001-2013 Comsenz Inc.

快速回复 返回顶部 返回列表