梦幻天堂·龙网

 找回密码
 立即注册
查看: 143|回复: 1

[原盘remux] [喜剧]缅因姐妹.2019.HDR.2160p.WEB.h265-WATCHER 10.03 GB 英语简繁中字

[复制链接]

6763

主题

8860

帖子

1万

积分

神界龙王

Rank: 30Rank: 30Rank: 30Rank: 30

积分
19075

龙网爱心勋章

发表于 2020-5-17 12:51:24 | 显示全部楼层 |阅读模式

导演: 布丽吉特·萨维奇·科勒 / 丹妮拉·克鲁蒂
编剧: 布丽吉特·萨维奇·科勒 / 丹妮拉·克鲁蒂
主演: 摩根·塞勒 / 苏菲·洛 / 玛格·马丁戴尔 / 琼·斯奎布 / 马塞林·休格特 / 安妮特·奥图 / 威尔·布里顿 / 欧文·伯克 / 亚当·W·梅耶森 / 艾邦·摩斯-巴克拉赫 / 戴维·普里多摩尔 / 盖尔·兰金 / 斯基普·萨德思 / Mark S. Cartier / David Coffin / Meredith Holzman / Thomas Kee
类型: 剧情 / 喜剧 / 悬疑
制片国家/地区: 美国
语言: 英语
上映日期: 2019-04-26(翠贝卡电影节) / 2020-03-20(美国)
片长: 90分钟
又名: 把那个人击倒
IMDb链接: tt8299768


缅因姐妹的剧情简介:
  玛丽·贝丝(Mary Beth)和普里西拉·康诺利(Priscilla Connolly)试图掩盖误杀一名危险男子的行径。 为了隐瞒自己的罪行,姐妹们必须深入了解家乡的犯罪活动,揭露该镇最黑暗的秘密。


缅因姐妹电影截图:



Video
ID : 1
Format : HEVC
Format/Info : High Efficiency Video Coding
Format profile : Main 10@L5@Main
HDR format : SMPTE ST 2094 App 4, Version 0
Codec ID : V_MPEGH/ISO/HEVC
Duration : 1 h 31 min
Bit rate : 14.9 Mb/s
Width : 3 840 pixels
Height : 2 080 pixels
Display aspect ratio : 1.85:1
Frame rate mode : Constant
Frame rate : 23.976 (24000/1001) FPS
Standard : NTSC
Color space : YUV
Chroma subsampling : 4:2:0 (Type 2)
Bit depth : 10 bits
Bits/(Pixel*Frame) : 0.078
Stream size : 9.50 GiB (96%)
Default : Yes
Forced : No
Color range : Limited
Color primaries : BT.2020
Transfer characteristics : PQ
Matrix coefficients : BT.2020 non-constant
Mastering display color primaries : Display P3
Mastering display luminance : min: 0.0001 cd/m2, max: 1000 cd/m2
Maximum Content Light Level : 285 cd/m2
Maximum Frame-Average Light Level : 54 cd/m2

Audio
ID : 2
Format : E-AC-3
Format/Info : Enhanced AC-3
Commercial name : Dolby Digital Plus
Codec ID : A_EAC3
Duration : 1 h 31 min
Bit rate mode : Constant
Bit rate : 640 kb/s
Channel(s) : 6 channels
Channel layout : L R C LFE Ls Rs
Sampling rate : 48.0 kHz
Frame rate : 31.250 FPS (1536 SPF)
Compression mode : Lossy
Stream size : 419 MiB (4%)
Title : English
Language : English
Service kind : Complete Main
Default : Yes
Forced : No

Text #1
ID : 3
Format : UTF-8
Codec ID : S_TEXT/UTF8
Codec ID/Info : UTF-8 Plain Text
Duration : 1 h 30 min
Bit rate : 56 b/s
Count of elements : 1368
Stream size : 37.7 KiB (0%)
Title : English [SDH]
Language : English
Default : No
Forced : No

Text #2
ID : 4
Format : UTF-8
Codec ID : S_TEXT/UTF8
Codec ID/Info : UTF-8 Plain Text
Duration : 1 h 29 min
Bit rate : 37 b/s
Count of elements : 785
Stream size : 24.2 KiB (0%)
Title : Castilian [Full]
Language : Spanish
Default : No
Forced : No

Text #3
ID : 5
Format : UTF-8
Codec ID : S_TEXT/UTF8
Codec ID/Info : UTF-8 Plain Text
Duration : 1 h 28 min
Bit rate : 37 b/s
Count of elements : 787
Stream size : 24.1 KiB (0%)
Title : Spanish [Full]
Language : Spanish
Default : No
Forced : No



磁力链接:

magnet:?xt=urn:btih:c4085aaf9fcf96fd965a3056cd67e097edee2fba&dn=Blow.The.Man.Down.2019.HDR.2160p.WEB.h265-WATCHER&tr=http%3A%2F%2Ftracker.trackerfix.com%3A80%2Fannounce&tr=udp%3A%2F%2F9.rarbg.me%3A2950&tr=udp%3A%2F%2F9.rarbg.to%3A2830

本帖子中包含更多资源

您需要 登录 才可以下载或查看,没有帐号?立即注册

x

2

主题

3万

帖子

4万

积分

升龙霸·VIP

Rank: 22Rank: 22Rank: 22Rank: 22

积分
44883

龙网爱心勋章龙网VIP·银牌

发表于 2020-5-19 22:15:26 | 显示全部楼层
谢谢楼主发片
您需要登录后才可以回帖 登录 | 立即注册

本版积分规则

小黑屋|梦幻天堂·龙网

GMT+8, 2020-5-28 22:59 , Processed in 0.112681 second(s), 21 queries , Gzip On.

Powered by Discuz! X3.2

© 2001-2013 Comsenz Inc.

快速回复 返回顶部 返回列表