梦幻天堂·龙网

 找回密码
 立即注册
查看: 590|回复: 8

[1080p] [ 动作]中天.The.Restless.2006.1080p.BluRay.x264-LCHD 6.56 GB

[复制链接]

6763

主题

8860

帖子

1万

积分

神界龙王

Rank: 30Rank: 30Rank: 30Rank: 30

积分
19075

龙网爱心勋章

发表于 2020-4-20 11:23:16 | 显示全部楼层 |阅读模式
导演: 曹东吾
编剧: 曹东吾
主演: 许峻豪 / 金泰熙 / 郑雨盛 / 苏怡贤 / 金光一
类型: 剧情 / 动作 / 爱情 / 奇幻 / 冒险
制片国家/地区: 韩国
语言: 韩语
上映日期: 2006-12-20(韩国)
片长: 105分钟
又名: The Restless
IMDb链接: tt0929261

中天的剧情简介:
  中天——人间和天上的中间地带。当灵魂脱离躯壳,首先要到达的就是这个中转站,在这里存在7个空间,各停留7天,过完这49天,有人洗净完生前的罪恶,去了天上;有人淡忘掉人世间的记忆,成为了守护中天的天人;还有的成为了不上不下的冤魂。
  为了替死去的恋人莲花(金泰熙 饰)报仇,李郭(郑雨盛 饰)成为了驱鬼师,想要消灭危害人间的恶鬼。追逐恶鬼来到中天的他偶遇到了一个极像莲花的名为素花的天人,素花其实就是莲花,只是淡忘了生前的记忆。素花手上握有掌控中天的灵体项链,而这成为了众恶鬼想要争夺的宝藏。为了守护莲花、保卫人间,李郭开始了和恶鬼们的大战,而这时,素花的记忆也奇迹的在一点点恢复……

中天电影截图:
[size=10.6667px]
[size=10.6667px]

[size=10.6667px]
Video
ID : 1
Format : AVC
Format/Info : Advanced Video Codec
Format profile : High@L4.1
Format settings : CABAC / 5 Ref Frames
Format settings, CABAC : Yes
Format settings, Reference frames : 5 frames
Codec ID : V_MPEG4/ISO/AVC
Duration : 1 h 44 min
Bit rate : 8 333 kb/s
Width : 1 920 pixels
Height : 816 pixels
Display aspect ratio : 2.35:1
Frame rate mode : Constant
Frame rate : 23.976 (24000/1001) FPS
Color space : YUV
Chroma subsampling : 4:2:0
Bit depth : 8 bits
Scan type : Progressive
Bits/(Pixel*Frame) : 0.222
Stream size : 5.96 GiB (91%)
Writing library : x264 core 80 r1376 3feaec2
Encoding settings : cabac=1 / ref=5 / deblock=1:-1:-1 / analyse=0x3:0x113 / me=umh / subme=7 / psy=1 / psy_rd=1.0:0.0 / mixed_ref=1 / me_range=16 / chroma_me=1 / trellis=2 / 8x8dct=1 / cqm=0 / deadzone=21,11 / fast_pskip=1 / chroma_qp_offset=-2 / threads=12 / sliced_threads=0 / nr=0 / decimate=1 / mbaff=0 / constrained_intra=0 / bframes=3 / b_pyramid=0 / b_adapt=2 / b_bias=0 / direct=3 / wpredb=1 / wpredp=2 / keyint=250 / keyint_min=25 / scenecut=40 / rc_lookahead=40 / rc=2pass / mbtree=1 / bitrate=8333 / ratetol=1.0 / qcomp=0.60 / qpmin=10 / qpmax=51 / qpstep=4 / cplxblur=20.0 / qblur=0.5 / vbv_maxrate=50000 / vbv_bufsize=50000 / ip_ratio=1.40 / aq=1:1.00
Language : Korean
Default : Yes
Forced : No

Audio
ID : 2
Format : AC-3
Format/Info : Audio Coding 3
Commercial name : Dolby Digital
Codec ID : A_AC3
Duration : 1 h 44 min
Bit rate mode : Constant
Bit rate : 640 kb/s
Channel(s) : 6 channels
Channel layout : L R C LFE Ls Rs
Sampling rate : 48.0 kHz
Frame rate : 31.250 FPS (1536 SPF)
Bit depth : 16 bits
Compression mode : Lossy
Stream size : 479 MiB (7%)
Language : Korean
Service kind : Complete Main
Default : Yes
Forced : No

Text
ID : 3
Format : UTF-8
Codec ID : S_TEXT/UTF8
Codec ID/Info : UTF-8 Plain Text
Language : English
Default : Yes
Forced : No
[size=10.6667px]


本帖子中包含更多资源

您需要 登录 才可以下载或查看,没有帐号?立即注册

x

1

主题

1万

帖子

1万

积分

神界龙王

Rank: 30Rank: 30Rank: 30Rank: 30

积分
17738
发表于 2020-4-20 17:59:09 | 显示全部楼层

Thank you for sharing

21

主题

1万

帖子

1万

积分

神界龙王

Rank: 30Rank: 30Rank: 30Rank: 30

积分
17982
发表于 2020-4-21 13:22:53 | 显示全部楼层
谢谢楼主分享精彩影片,辛苦了

1

主题

326

帖子

588

积分

龙的传人

Rank: 13Rank: 13Rank: 13

积分
588
发表于 2020-4-21 15:32:59 | 显示全部楼层
感谢楼主的分享

0

主题

53

帖子

87

积分

龙之子

Rank: 8Rank: 8Rank: 8Rank: 8

积分
87
发表于 2020-4-26 13:22:13 | 显示全部楼层

谢谢楼主分享精彩影片

0

主题

35

帖子

68

积分

泡泡龙

Rank: 5Rank: 5Rank: 5

积分
68
发表于 2020-4-29 16:18:45 | 显示全部楼层
终于等到你了

1

主题

2293

帖子

2990

积分

赤血神龙

Rank: 20Rank: 20Rank: 20Rank: 20

积分
2990
发表于 2020-5-2 20:39:31 | 显示全部楼层
感谢楼主分享

1

主题

197

帖子

383

积分

龙少爷

Rank: 10Rank: 10

积分
383
发表于 2020-5-4 10:19:26 | 显示全部楼层
多谢分享!!!!!!

2

主题

3万

帖子

4万

积分

升龙霸·VIP

Rank: 22Rank: 22Rank: 22Rank: 22

积分
44883

龙网爱心勋章龙网VIP·银牌

发表于 2020-5-11 23:28:34 | 显示全部楼层
谢谢楼主发片
您需要登录后才可以回帖 登录 | 立即注册

本版积分规则

小黑屋|梦幻天堂·龙网

GMT+8, 2020-5-28 23:06 , Processed in 0.122795 second(s), 21 queries , Gzip On.

Powered by Discuz! X3.2

© 2001-2013 Comsenz Inc.

快速回复 返回顶部 返回列表