梦幻天堂·龙网

 找回密码
 立即注册
查看: 1068|回复: 5

[1080p] 老师的恩惠.To.Sir.With.Love.2006.1080p.BluRay.x264-LCHD 6.56 GB

[复制链接]

6763

主题

8860

帖子

1万

积分

神界龙王

Rank: 30Rank: 30Rank: 30Rank: 30

积分
19075

龙网爱心勋章

发表于 2020-4-20 11:21:12 | 显示全部楼层 |阅读模式
导演: 林大雄
编剧: 朴世烈 / 林大雄
主演: 徐英姬 / 吴美熙 / 吕贤洙 / 朴孝俊 / 张诚源 / 金英善 / 李东奎 / 李知贤
类型: 悬疑 / 惊悚 / 恐怖
制片国家/地区: 韩国
语言: 韩语
上映日期: 2006-08-03(韩国)
片长: 93 分钟
又名: 卸尸宴(台) / 谢师宴 / 恐怖同学会 / 先生的恩惠 / Bloody Reunion / My Teacher / To Sir, With Love
IMDb链接: tt0870958

老师的恩惠的剧情简介:
  身体虚弱的朴老师(吴美熙饰)退休后隐居在远离人烟的海边,一年前收留的女学生美子(徐瑛姬饰)提议举行一个同学聚会,让老师开心一下。前来聚会的学生形迹怪异:将要结婚的班长世浩(余贤秀饰)和副班长恩英、身材火爆的顺姬(李智贤饰)、跛脚的达峰、帅气的明浩等来到了老师面前,却因为曾经都被朴老师伤害过而怨气冲天,正阳小时候母亲因为自己被记过去找老师理论时被车撞死而显得阴阳怪气。这夜,在纷纷控诉过老师对自己的伤害后,这群学生接二连三被穿着正阳的衣服戴着兔子面具的人杀死,只有朴老师与奋力保护她的美子幸存。警察在调查时发现朴老师当年并没有一个叫美子的学生,恐怖渐生。到底是谁的阴暗记忆毁了这一切?事实的真相与表面上看到的大相径庭。

老师的恩惠电影截图:
[size=10.6667px]
[size=10.6667px]

[size=10.6667px]
Video
ID : 1
Format : AVC
Format/Info : Advanced Video Codec
Format profile : High@L4.1
Format settings : CABAC / 4 Ref Frames
Format settings, CABAC : Yes
Format settings, Reference frames : 4 frames
Codec ID : V_MPEG4/ISO/AVC
Duration : 1 h 33 min
Bit rate : 9 436 kb/s
Width : 1 920 pixels
Height : 1 048 pixels
Display aspect ratio : 1.85:1
Frame rate mode : Constant
Frame rate : 23.976 (24000/1001) FPS
Color space : YUV
Chroma subsampling : 4:2:0
Bit depth : 8 bits
Scan type : Progressive
Bits/(Pixel*Frame) : 0.196
Stream size : 6.01 GiB (92%)
Writing library : x264 core 88 r1462 7fcffde
Encoding settings : cabac=1 / ref=4 / deblock=1:-1:-1 / analyse=0x3:0x113 / me=umh / subme=7 / psy=1 / psy_rd=1.00:0.00 / mixed_ref=1 / me_range=16 / chroma_me=1 / trellis=2 / 8x8dct=1 / cqm=0 / deadzone=21,11 / fast_pskip=1 / chroma_qp_offset=-2 / threads=12 / sliced_threads=0 / nr=0 / decimate=1 / mbaff=0 / constrained_intra=0 / bframes=3 / b_pyramid=2 / b_adapt=2 / b_bias=0 / direct=3 / wpredb=1 / wpredp=2 / keyint=250 / keyint_min=25 / scenecut=40 / intra_refresh=0 / rc_lookahead=40 / rc=2pass / mbtree=1 / bitrate=9436 / ratetol=1.0 / qcomp=0.60 / qpmin=10 / qpmax=51 / qpstep=4 / cplxblur=20.0 / qblur=0.5 / vbv_maxrate=50000 / vbv_bufsize=50000 / ip_ratio=1.40 / aq=1:1.00
Language : Korean
Default : Yes
Forced : Yes

Audio
ID : 2
Format : AC-3
Format/Info : Audio Coding 3
Commercial name : Dolby Digital
Codec ID : A_AC3
Duration : 1 h 33 min
Bit rate mode : Constant
Bit rate : 640 kb/s
Channel(s) : 6 channels
Channel layout : L R C LFE Ls Rs
Sampling rate : 48.0 kHz
Frame rate : 31.250 FPS (1536 SPF)
Bit depth : 16 bits
Compression mode : Lossy
Stream size : 427 MiB (6%)
Language : Korean
Service kind : Complete Main
Default : Yes
Forced : Yes

Text
ID : 3
Format : UTF-8
Codec ID : S_TEXT/UTF8
Codec ID/Info : UTF-8 Plain Text
Language : English
Default : Yes
Forced : No
[size=10.6667px]


本帖子中包含更多资源

您需要 登录 才可以下载或查看,没有帐号?立即注册

x

3

主题

170

帖子

276

积分

龙少爷

Rank: 10Rank: 10

积分
276
发表于 2020-4-21 08:16:46 | 显示全部楼层
以前的高清区让人怀念啊。

0

主题

813

帖子

1047

积分

神龙

Rank: 15Rank: 15Rank: 15

积分
1047
发表于 2020-4-21 09:47:08 | 显示全部楼层

谢谢楼主发片

21

主题

1万

帖子

1万

积分

神界龙王

Rank: 30Rank: 30Rank: 30Rank: 30

积分
17982
发表于 2020-4-21 13:23:10 | 显示全部楼层
谢谢楼主分享精彩影片,辛苦了

1

主题

326

帖子

588

积分

龙的传人

Rank: 13Rank: 13Rank: 13

积分
588
发表于 2020-4-21 15:31:41 | 显示全部楼层
感谢楼主的分享

2

主题

3万

帖子

4万

积分

升龙霸·VIP

Rank: 22Rank: 22Rank: 22Rank: 22

积分
44883

龙网爱心勋章龙网VIP·银牌

发表于 2020-5-11 23:29:52 | 显示全部楼层
谢谢楼主发片
您需要登录后才可以回帖 登录 | 立即注册

本版积分规则

小黑屋|梦幻天堂·龙网

GMT+8, 2020-5-28 22:07 , Processed in 0.125277 second(s), 21 queries , Gzip On.

Powered by Discuz! X3.2

© 2001-2013 Comsenz Inc.

快速回复 返回顶部 返回列表