梦幻天堂·龙网

 找回密码
 立即注册
查看: 880|回复: 11

[1080p] 梦精记2.Wet.Dreams.2.2005.1080p.BluRay.x264-LCHD

[复制链接]

6763

主题

8860

帖子

1万

积分

神界龙王

Rank: 30Rank: 30Rank: 30Rank: 30

积分
19075

龙网爱心勋章

发表于 2020-4-20 11:20:04 | 显示全部楼层 |阅读模式
导演: 丁楚信
主演: 李智勋 / 全慧彬 / 金智英 / 宋恩彩
类型: 喜剧
制片国家/地区: 韩国
语言: 韩语
上映日期: 2005-01-13(韩国)
片长: 101分钟
又名: 芳心朵朵开(台) / 美少女爱作战 / Wet Dreams 2
IMDb链接: tt0453161

梦精记2的剧情简介:
  圣恩(姜恩菲 饰)、秀妍(全慧彬 饰)和美淑三名高中女生在参加了姐姐的婚礼后浮想联翩,期待自己的白马王子早日到来……刚毕业的英俊体育老师姜奉求(李智勋 饰)为自己面对女性激动时便会放屁的奇异体制苦恼不已,然而这不妨碍他在女校实习时成为了女生的大众情人。圣恩和盛气凌人的校园模特白世美(申珠雅 饰)同时属意姜奉求,一场竞争不可避免。胸部平平又毫无和异性交往经验的圣恩处处落于下风,秀妍与美淑两个姐妹帮忙策划了男生兴奋点研究、偷窥男更衣室和匿名录音带表白等一系列夺男行动却始终不见成效,面对白世美的步步紧逼,圣恩决定孤注一掷,直接在夜晚闯入了姜奉求的家中……

梦精记2电影截图:

Video
ID : 1
Format : AVC
Format/Info : Advanced Video Codec
Format profile : High@L4.1
Format settings : CABAC / 5 Ref Frames
Format settings, CABAC : Yes
Format settings, Reference frames : 5 frames
Codec ID : V_MPEG4/ISO/AVC
Duration : 1 h 40 min
Bit rate : 8 707 kb/s
Width : 1 920 pixels
Height : 808 pixels
Display aspect ratio : 2.40:1
Frame rate mode : Constant
Frame rate : 23.976 (24000/1001) FPS
Color space : YUV
Chroma subsampling : 4:2:0
Bit depth : 8 bits
Scan type : Progressive
Bits/(Pixel*Frame) : 0.234
Stream size : 5.98 GiB (91%)
Writing library : x264 core 88 r1462 7fcffde
Encoding settings : cabac=1 / ref=5 / deblock=1:-1:-1 / analyse=0x3:0x113 / me=umh / subme=7 / psy=1 / psy_rd=1.00:0.00 / mixed_ref=1 / me_range=16 / chroma_me=1 / trellis=2 / 8x8dct=1 / cqm=0 / deadzone=21,11 / fast_pskip=1 / chroma_qp_offset=-2 / threads=12 / sliced_threads=0 / nr=0 / decimate=1 / mbaff=0 / constrained_intra=0 / bframes=3 / b_pyramid=2 / b_adapt=2 / b_bias=0 / direct=3 / wpredb=1 / wpredp=2 / keyint=250 / keyint_min=25 / scenecut=40 / intra_refresh=0 / rc_lookahead=40 / rc=2pass / mbtree=1 / bitrate=8707 / ratetol=1.0 / qcomp=0.60 / qpmin=10 / qpmax=51 / qpstep=4 / cplxblur=20.0 / qblur=0.5 / vbv_maxrate=50000 / vbv_bufsize=50000 / ip_ratio=1.40 / aq=1:1.00
Language : Korean
Default : Yes
Forced : Yes

Audio
ID : 2
Format : AC-3
Format/Info : Audio Coding 3
Commercial name : Dolby Digital
Codec ID : A_AC3
Duration : 1 h 40 min
Bit rate mode : Constant
Bit rate : 640 kb/s
Channel(s) : 6 channels
Channel layout : L R C LFE Ls Rs
Sampling rate : 48.0 kHz
Frame rate : 31.250 FPS (1536 SPF)
Bit depth : 16 bits
Compression mode : Lossy
Stream size : 460 MiB (7%)
Language : Korean
Service kind : Complete Main
Default : Yes
Forced : Yes

Text
ID : 3
Format : UTF-8
Codec ID : S_TEXT/UTF8
Codec ID/Info : UTF-8 Plain Text
Language : English
Default : Yes
Forced : No

本帖子中包含更多资源

您需要 登录 才可以下载或查看,没有帐号?立即注册

x

1

主题

1万

帖子

1万

积分

神界龙王

Rank: 30Rank: 30Rank: 30Rank: 30

积分
17738
发表于 2020-4-20 18:00:39 | 显示全部楼层

Thank you for sharing

0

主题

813

帖子

1047

积分

神龙

Rank: 15Rank: 15Rank: 15

积分
1047
发表于 2020-4-21 09:50:06 | 显示全部楼层

谢谢楼主发片

21

主题

1万

帖子

1万

积分

神界龙王

Rank: 30Rank: 30Rank: 30Rank: 30

积分
17982
发表于 2020-4-21 13:25:16 | 显示全部楼层
谢谢楼主分享精彩影片,辛苦了

1

主题

326

帖子

588

积分

龙的传人

Rank: 13Rank: 13Rank: 13

积分
588
发表于 2020-4-21 15:32:27 | 显示全部楼层
感谢楼主的分享

0

主题

2589

帖子

4632

积分

赤血神龙

Rank: 20Rank: 20Rank: 20Rank: 20

积分
4632
发表于 2020-4-22 18:35:42 | 显示全部楼层
谢谢楼主发片

0

主题

35

帖子

68

积分

泡泡龙

Rank: 5Rank: 5Rank: 5

积分
68
发表于 2020-4-29 16:20:30 | 显示全部楼层
终于找到你了

1

主题

2293

帖子

2990

积分

赤血神龙

Rank: 20Rank: 20Rank: 20Rank: 20

积分
2990
发表于 2020-5-2 20:39:46 | 显示全部楼层
感谢楼主分享

0

主题

28

帖子

63

积分

泡泡龙

Rank: 5Rank: 5Rank: 5

积分
63
发表于 2020-5-3 08:14:36 | 显示全部楼层
感谢楼主发片

1

主题

197

帖子

383

积分

龙少爷

Rank: 10Rank: 10

积分
383
发表于 2020-5-4 10:20:08 | 显示全部楼层
感谢分享,支持!!!!

0

主题

17

帖子

45

积分

泡泡龙

Rank: 5Rank: 5Rank: 5

积分
45
发表于 2020-5-9 00:33:12 | 显示全部楼层
感谢分享,支持支持!

2

主题

3万

帖子

4万

积分

升龙霸·VIP

Rank: 22Rank: 22Rank: 22Rank: 22

积分
44883

龙网爱心勋章龙网VIP·银牌

发表于 2020-5-11 23:30:16 | 显示全部楼层
谢谢楼主发片
您需要登录后才可以回帖 登录 | 立即注册

本版积分规则

小黑屋|梦幻天堂·龙网

GMT+8, 2020-5-29 00:02 , Processed in 0.131411 second(s), 21 queries , Gzip On.

Powered by Discuz! X3.2

© 2001-2013 Comsenz Inc.

快速回复 返回顶部 返回列表