梦幻天堂·龙网

 找回密码
 立即注册
查看: 343|回复: 3

[1080p] [动作]叶问4:完结篇.2019.CHINESE.1080p.BluRay.x264.TrueHD...

[复制链接]

6763

主题

8860

帖子

1万

积分

神界龙王

Rank: 30Rank: 30Rank: 30Rank: 30

积分
19075

龙网爱心勋章

发表于 2020-4-13 16:44:53 | 显示全部楼层 |阅读模式

导演: 叶伟信
编剧: 黄子桓 / 深泽寛 / 陈大利 / 梁礼彦
主演: 甄子丹 / 吴樾 / 吴建豪 / 斯科特·阿金斯 / 李宛妲 / 郑则仕 / 陈国坤 / 敖嘉年 / 高战 / 叶禾 / 熊黛林 / 罗莽 / 刘敬宇 / 史蒂文·达兹
类型: 剧情 / 动作
制片国家/地区: 中国香港
语言: 粤语 / 英语
上映日期: 2019-12-20(中国大陆)
片长: 107分钟
又名: 叶问4 / Ip M4n / Ip Man 4 / Yip Man 4 / Yip Man 4:The Finale
IMDb链接: tt2076298


叶问4:完结篇的剧情简介 · · · · · ·
  因故来到美国唐人街的叶问,意外卷入一场当地军方势力与华人武馆的纠纷,面对日益猖狂的民族歧视与压迫,叶问挺身而出,在美国海军陆战队军营拼死一战,以正宗咏春,向世界证明了中国功夫。


叶问4:完结篇 葉問4 获奖情况
第39届香港电影金像奖  (2020)
最佳导演(提名) 叶伟信
最佳新演员(提名) 李宛妲
最佳摄影(提名) 郑兆强
最佳剪接(提名) 张嘉辉
最佳美术指导(提名) 麦国强
最佳服装造型设计(提名) 利碧君
最佳动作设计(提名) 袁和平
最佳原创电影音乐(提名) 川井宪次
最佳音响效果(提名) 姚俊轩 / 李耀强


叶问4:完结篇电影截图:





Video
ID : 1
Format : AVC
Format/Info : Advanced Video Codec
Format profile : High@L4.1
Format settings : CABAC / 5 Ref Frames
Format settings, CABAC : Yes
Format settings, Reference frames : 5 frames
Codec ID : V_MPEG4/ISO/AVC
Duration : 1 h 45 min
Bit rate : 13.0 Mb/s
Width : 1 920 pixels
Height : 804 pixels
Display aspect ratio : 2.40:1
Frame rate mode : Constant
Frame rate : 24.000 FPS
Color space : YUV
Chroma subsampling : 4:2:0
Bit depth : 8 bits
Scan type : Progressive
Bits/(Pixel*Frame) : 0.351
Stream size : 9.52 GiB (70%)
Writing library : x264 core 148 r2665kMod a01e339
Encoding settings : cabac=1 / ref=5 / deblock=1:-3:-3 / analyse=0x3:0x133 / me=umh / subme=11 / psy=1 / fade_compensate=0.00 / psy_rd=0.85:0.00 / mixed_ref=1 / me_range=48 / chroma_me=1 / trellis=2 / 8x8dct=1 / cqm=0 / deadzone=21,11 / fast_pskip=0 / chroma_qp_offset=-2 / threads=24 / lookahead_threads=4 / sliced_threads=0 / nr=0 / decimate=0 / interlaced=0 / bluray_compat=0 / constrained_intra=0 / fgo=0 / bframes=8 / b_pyramid=2 / b_adapt=2 / b_bias=0 / direct=3 / weightb=1 / open_gop=0 / weightp=2 / keyint=240 / keyint_min=24 / scenecut=40 / intra_refresh=0 / rc=2pass / mbtree=0 / bitrate=13000 / ratetol=1.0 / qcomp=0.70 / qpmin=0 / qpmax=69 / qpstep=4 / cplxblur=20.0 / qblur=0.5 / ip_ratio=1.20 / pb_ratio=1.20 / aq=3:0.80
Default : Yes
Forced : No

Audio #1
ID : 2
Format : MLP FBA 16-ch
Format/Info : Meridian Lossless Packing FBA with 16-channel presentation
Commercial name : Dolby TrueHD with Dolby Atmos
Codec ID : A_TRUEHD
Duration : 1 h 45 min
Bit rate mode : Variable
Bit rate : 4 697 kb/s
Maximum bit rate : 7 896 kb/s
Channel(s) : 8 channels
Channel layout : L R C LFE Ls Rs Lb Rb
Sampling rate : 48.0 kHz
Frame rate : 1 200.000 FPS (40 SPF)
Compression mode : Lossless
Stream size : 3.45 GiB (26%)
Language : Chinese
Default : Yes
Forced : No
Number of dynamic objects : 11
Bed channel count : 1 channel
Bed channel configuration : LFE

Audio #2
ID : 3
Format : AC-3
Format/Info : Audio Coding 3
Commercial name : Dolby Digital
Codec ID : A_AC3
Duration : 1 h 45 min
Bit rate mode : Constant
Bit rate : 640 kb/s
Channel(s) : 6 channels
Channel layout : L R C LFE Ls Rs
Sampling rate : 48.0 kHz
Frame rate : 31.250 FPS (1536 SPF)
Bit depth : 16 bits
Compression mode : Lossy
Stream size : 482 MiB (3%)
Language : Chinese
Service kind : Complete Main
Default : No
Forced : No

Text #1
ID : 4
Format : UTF-8
Codec ID : S_TEXT/UTF8
Codec ID/Info : UTF-8 Plain Text
Duration : 1 h 40 min
Bit rate : 26 b/s
Count of elements : 815
Stream size : 19.7 KiB (0%)
Title : English-SRT
Language : English
Default : Yes
Forced : No

Text #2
ID : 5
Format : PGS
Muxing mode : zlib
Codec ID : S_HDMV/PGS
Codec ID/Info : Picture based subtitle format used on BDs/HD-DVDs
Duration : 1 h 40 min
Bit rate : 17.6 kb/s
Count of elements : 1634
Stream size : 12.7 MiB (0%)
Title : English-PGS
Language : English
Default : No
Forced : No

Text #3
ID : 6
Format : PGS
Muxing mode : zlib
Codec ID : S_HDMV/PGS
Codec ID/Info : Picture based subtitle format used on BDs/HD-DVDs
Duration : 1 h 40 min
Bit rate : 23.4 kb/s
Count of elements : 2720
Stream size : 16.9 MiB (0%)
Title : Chinese-PGS
Language : Chinese
Default : No
Forced : No

Text #4
ID : 7
Format : PGS
Muxing mode : zlib
Codec ID : S_HDMV/PGS
Codec ID/Info : Picture based subtitle format used on BDs/HD-DVDs
Duration : 1 h 40 min
Bit rate : 21.6 kb/s
Count of elements : 2720
Stream size : 15.6 MiB (0%)
Title : Chinese-PGS
Language : Chinese
Default : No
Forced : No

Menu
00:00:00.000 : :绗?01 绔?
00:11:01.292 : :绗?02 绔?
00:21:05.500 : :绗?03 绔?
00:31:38.917 : :绗?04 绔?
00:40:56.625 : :绗?05 绔?
00:50:02.542 : :绗?06 绔?
00:58:48.208 : :绗?07 绔?
01:10:40.375 : :绗?08 绔?
01:18:20.167 : :绗?09 绔?
01:29:57.958 : :绗?10 绔?
01:41:41.458 : :绗?11 绔?

本帖子中包含更多资源

您需要 登录 才可以下载或查看,没有帐号?立即注册

x

2

主题

3万

帖子

4万

积分

升龙霸·VIP

Rank: 22Rank: 22Rank: 22Rank: 22

积分
44883

龙网爱心勋章龙网VIP·银牌

发表于 2020-4-13 23:22:37 | 显示全部楼层
  谢谢楼主发片

21

主题

1万

帖子

1万

积分

神界龙王

Rank: 30Rank: 30Rank: 30Rank: 30

积分
17982
发表于 2020-4-14 16:06:02 | 显示全部楼层
谢谢楼主分享影片,辛苦了

0

主题

813

帖子

1047

积分

神龙

Rank: 15Rank: 15Rank: 15

积分
1047
发表于 2020-4-21 09:51:50 | 显示全部楼层

谢谢楼主发片
您需要登录后才可以回帖 登录 | 立即注册

本版积分规则

小黑屋|梦幻天堂·龙网

GMT+8, 2020-5-28 22:39 , Processed in 0.131766 second(s), 21 queries , Gzip On.

Powered by Discuz! X3.2

© 2001-2013 Comsenz Inc.

快速回复 返回顶部 返回列表