梦幻天堂·龙网

 找回密码
 立即注册
查看: 397|回复: 3

[1080p] [动作]绝地战警:疾速追击.B2020.1080p.BluRay.x264.DTS-HD.MA.5.1-FGT 10.54 GB

[复制链接]

6763

主题

8860

帖子

1万

积分

神界龙王

Rank: 30Rank: 30Rank: 30Rank: 30

积分
19075

龙网爱心勋章

发表于 2020-4-13 16:43:21 | 显示全部楼层 |阅读模式

导演: 阿迪尔·埃尔·阿比 / 比拉勒·法拉赫
编剧: 克里斯·布雷姆纳 / 乔·卡纳汉 / 乔治·加洛 / 大卫·古根海姆 / 安东尼·塔姆巴基斯
主演: 威尔·史密斯 / 马丁·劳伦斯 / 凡妮莎·哈金斯 / 亚历山大·路德韦格 / 乔·潘托里亚诺 / 海皮·安德森 / 查尔斯·梅尔顿 / 凯特·德尔·卡斯蒂洛 / 葆拉·努涅斯 / 莎伦·菲弗 / DJ卡拉德 / 詹妮弗·巴杰 / 马西·弗伦 / 玛丽亚·Z·威尔逊 / 艾米丽·托尔斯 / 伊沃·南迪 / 大卫·莫拉蒂 / 安东尼·莫利纳利 / 汉斯·马雷罗 / 特洛伊·布伦纳 / 巴迪·沃特金斯 / 大卫·L·马斯顿 / 约翰·盖蒂尔 / 塞尔吉奥·布里奥内斯 / 卡洛斯·格雷罗 / 德里克‧吉尔伯特 / 切克·伯恩哈特
类型: 喜剧 / 动作 / 犯罪
官方网站: www.badboysforlife.movie/
制片国家/地区: 美国
语言: 英语
上映日期: 2020(中国大陆) / 2020-01-17(美国)
片长: 124分钟
又名: 绝地战警3 / 重案梦幻再重组(港) / 绝地战警FOR LIFE(台) / Bad Boys 3
IMDb链接: tt1502397


绝地战警:疾速追击的剧情简介:
  曾制作《珍珠港》、《壮志凌云》、《加勒比海盗》系列等爆款电影的好莱坞金牌制片人全新倾力打造的《绝地战警:疾速追击》,讲述了迈阿密警员麦克(威尔·史密斯饰)遭遇神秘黑帮势力的暗杀伏击,为了迎战势力庞大火力惊人的黑帮分子,解决隐藏在暗处的危机,麦克找回曾经的搭档马库斯(马丁·劳伦斯饰),“嘴炮二人组”再度集结开启沙雕模式,不仅时刻上演逗比互怼,更在迈阿密街头与黑帮展开空前绝后的飙车枪战大戏。这对最佳搭档究竟能否在枪林弹雨下突出重围,找出幕后黑手完成绝地反杀?


绝地战警:疾速追击电影截图:



Video
ID : 1
Format : AVC
Format/Info : Advanced Video Codec
Format profile : High@L4.1
Format settings : CABAC / 5 Ref Frames
Format settings, CABAC : Yes
Format settings, Reference frames : 5 frames
Codec ID : V_MPEG4/ISO/AVC
Duration : 2 h 3 min
Bit rate : 9 840 kb/s
Width : 1 920 pixels
Height : 800 pixels
Display aspect ratio : 2.40:1
Frame rate mode : Constant
Frame rate : 23.976 (24000/1001) FPS
Color space : YUV
Chroma subsampling : 4:2:0
Bit depth : 8 bits
Scan type : Progressive
Bits/(Pixel*Frame) : 0.267
Stream size : 8.52 GiB (81%)
Title : Bad.Boys.for.Life.2020.1080p.BluRay.x264.DTS-HD.MA.5.1-FGT
Writing library : x264 core 159 r2991 1771b55
Encoding settings : cabac=1 / ref=5 / deblock=1:-3:-3 / analyse=0x3:0x133 / me=umh / subme=8 / psy=1 / psy_rd=1.00:0.00 / mixed_ref=1 / me_range=32 / chroma_me=1 / trellis=2 / 8x8dct=1 / cqm=0 / deadzone=21,11 / fast_pskip=0 / chroma_qp_offset=-2 / threads=24 / lookahead_threads=4 / sliced_threads=0 / nr=0 / decimate=1 / interlaced=0 / bluray_compat=0 / constrained_intra=0 / bframes=3 / b_pyramid=2 / b_adapt=2 / b_bias=0 / direct=3 / weightb=1 / open_gop=0 / weightp=2 / keyint=230 / keyint_min=23 / scenecut=40 / intra_refresh=0 / rc_lookahead=60 / rc=2pass / mbtree=1 / bitrate=9840 / ratetol=1.0 / qcomp=0.60 / qpmin=0 / qpmax=69 / qpstep=4 / cplxblur=20.0 / qblur=0.5 / ip_ratio=1.40 / aq=1:1.00
Default : Yes
Forced : No
Color range : Limited
Matrix coefficients : BT.709

Audio
ID : 2
Format : DTS XLL
Format/Info : Digital Theater Systems
Commercial name : DTS-HD Master Audio
Codec ID : A_DTS
Duration : 2 h 3 min
Bit rate mode : Variable
Bit rate : 2 306 kb/s
Channel(s) : 6 channels
Channel layout : C L R Ls Rs LFE
Sampling rate : 48.0 kHz
Frame rate : 93.750 FPS (512 SPF)
Bit depth : 16 bits
Compression mode : Lossless
Stream size : 2.00 GiB (19%)
Title : Bad.Boys.for.Life.2020.1080p.BluRay.x264.DTS-HD.MA.5.1-FGT
Language : English
Default : Yes
Forced : No

Text #1
ID : 3
Format : UTF-8
Codec ID : S_TEXT/UTF8
Codec ID/Info : UTF-8 Plain Text
Duration : 1 h 45 min
Bit rate : 2 b/s
Count of elements : 77
Stream size : 2.22 KiB (0%)
Title : English-FORCED-SRT
Language : English
Default : Yes
Forced : Yes

Text #2
ID : 4
Format : UTF-8
Codec ID : S_TEXT/UTF8
Codec ID/Info : UTF-8 Plain Text
Duration : 1 h 57 min
Bit rate : 61 b/s
Count of elements : 1544
Stream size : 52.6 KiB (0%)
Title : English-SRT
Language : English
Default : No
Forced : No

Text #3
ID : 5
Format : PGS
Muxing mode : zlib
Codec ID : S_HDMV/PGS
Codec ID/Info : Picture based subtitle format used on BDs/HD-DVDs
Duration : 1 h 57 min
Bit rate : 44.3 kb/s
Count of elements : 3753
Stream size : 37.3 MiB (0%)
Title : English-PGS
Language : English
Default : No
Forced : No

Menu
00:00:00.000 : en:Chapter 01
00:07:33.203 : en:Chapter 02
00:14:56.646 : en:Chapter 03
00:23:43.255 : en:Chapter 04
00:31:05.614 : en:Chapter 05
00:38:43.071 : en:Chapter 06
00:45:26.349 : en:Chapter 07
00:53:27.329 : en:Chapter 08
01:00:22.035 : en:Chapter 09
01:07:29.254 : en:Chapter 10
01:12:55.162 : en:Chapter 11
01:22:12.344 : en:Chapter 12
01:29:49.092 : en:Chapter 13
01:36:47.802 : en:Chapter 14
01:42:08.581 : en:Chapter 15
01:53:55.912 : en:Chapter 16
01:58:00.699 : en:Chapter 17



本帖子中包含更多资源

您需要 登录 才可以下载或查看,没有帐号?立即注册

x

2

主题

3万

帖子

4万

积分

升龙霸·VIP

Rank: 22Rank: 22Rank: 22Rank: 22

积分
44883

龙网爱心勋章龙网VIP·银牌

发表于 2020-4-13 23:23:19 | 显示全部楼层
  谢谢楼主发片

21

主题

1万

帖子

1万

积分

神界龙王

Rank: 30Rank: 30Rank: 30Rank: 30

积分
17982
发表于 2020-4-14 16:06:14 | 显示全部楼层
谢谢楼主分享影片,辛苦了

0

主题

85

帖子

149

积分

龙之子

Rank: 8Rank: 8Rank: 8Rank: 8

积分
149
发表于 2020-4-17 09:17:45 | 显示全部楼层
谢谢楼主分享精彩影片
您需要登录后才可以回帖 登录 | 立即注册

本版积分规则

小黑屋|梦幻天堂·龙网

GMT+8, 2020-5-28 23:49 , Processed in 0.119046 second(s), 21 queries , Gzip On.

Powered by Discuz! X3.2

© 2001-2013 Comsenz Inc.

快速回复 返回顶部 返回列表